#TITLE:World Is Mine;
#SUBTITLE:;
#ARTIST:Hatsune Miku;
#TITLETRANSLIT:;
#SUBTITLETRANSLIT:;
#ARTISTTRANSLIT:;
#CREDIT:;
#BANNER:Hatsune Miku - World is Mine-banner.jpg;
#BACKGROUND:Hatsune Miku - World is Mine-bg.jpg;
#LYRICSPATH:Hatsune Miku - World is Mine.lrc;
#CDTITLE:CDTitle.png;
#MUSIC:Hatsune Miku - World is Mine.ogg;
#OFFSET:0.220;
#SAMPLESTART:67.600;
#SAMPLELENGTH:12.000;
#SELECTABLE:YES;
#DISPLAYBPM:110.000:165.000;
#BPMS:0.000=165.000,30.500=150.000,33.000=145.000,35.000=120.000,37.000=100.000,38.500=80.000,39.500=60.000,40.500=50.000,41.000=40.000,41.500=100.000,42.000=165.000,267.500=145.000,269.000=140.000,273.000=110.000;
#STOPS:41.500=0.244
;
#BGCHANGES:;
// cache tags:
#FIRSTBEAT:6.000;
#LASTBEAT:291.667;
#SONGFILENAME:songs/Vocaloid Party/Hatsune Miku - World is Mine/Hatsune Miku - World is Mine.sm;
#HASMUSIC:1;
#HASBANNER:1;
#MUSICLENGTH:115.282;
// end cache tags

//---------------dance-single - ----------------
#NOTES:
     dance-single:
     :
     Challenge:
     10:
     0.699,0.791,0.703,0.304,0.286,446.000,81.000,35.000,24.000,1.000:
0000
0000
0000
0000
,
0000
0000
2000
0002
,
0000
0000
3000
0000
0013
0100
0000
0000
,
0000
0010
0001
0000
1000
0001
1000
0000
,
0001
0000
1000
0000
0010
0000
1000
0001
,
1001
1000
0010
2000
,
0000
0000
3010
0000
1000
0010
0200
0000
,
0320
0000
1030
0000
0000
1000
2000
0000
,
0000
0000
0002
0000
0000
3000
0200
0000
,
0000
0040
0000
0000
,
0000
0000
0333
0MMM
1000
0010
1010
0100
,
0101
0000
1001
0000
0000
0101
0000
0110
,
0110
0000
0202
0303
2200
0000
3300
1001
,
1001
0000
0011
0000
0000
1010
0000
0101
,
0101
0000
1010
0101
0000
0000
1010
1000
,
0110
0000
0101
0000
0000
0011
0000
1001
,
1001
0000
2000
0000
0002
3000
0103
0010
,
1000
0001
0100
0010
1000
0100
0011
1001
,
0011
1001
0011
0001
0001
0001
0001
1000
,
0000
0001
0010
0000
0100
0010
0000
0001
,
1000
0000
0010
0000
0100
0000
0010
1000
,
0001
0100
0000
0000
0010
0000
1000
0100
,
0010
0000
MM11
0000
0000
0000
M11M
0000
0000
0000
M1M1
0000
0100
0000
0001
0010
,
0100
0000
0100
0000
0011
0000
0010
0100
1000
0000
1000
0000
0100
0000
1000
0100
,
0010
0000
0010
0000
1100
0000
0100
0010
0001
0000
0001
0000
1000
0000
0001
0100
,
0001
0000
0100
0000
0000
0000
0010
0000
0000
0000
1000
0000
0000
0000
0001
0010
,
0100
M1MM
0000
MM1M
0000
1MMM
1000
0100
,
1000
0000
0100
0000
0010
0100
0010
0000
0001
0000
1000
0000
0001
0000
0100
0000
,
0010
0000
0100
0001
0010
0000
0001
0000
1000
0000
0000
0000
0000
0000
1000
0000
,
0000
0000
0001
0000
1000
0010
0100
0000
0010
0000
1000
0000
0001
0000
0000
0000
,
1000
11MM
0000
M11M
0000
MM11
0001
1000
,
0001
0100
1000
0100
0001
0010
0100
1000
,
0010
0000
1000
0000
0000
0100
0010
0100
,
1000
0001
0100
0010
0100
0010
0000
0000
,
0100
0000
0001
0000
0100
0001
0010
0000
0100
0000
0000
0000
2020
0000
3030
0000
,
0220
0000
0000
0300
1030
0000
1010
0000
0000
0000
0100
0000
0202
0000
0303
0000
,
0220
0000
0000
0000
0000
0000
0000
0000
0330
0000
0000
0000
0000
0000
0000
0000
0001
1000
0001
1000
0001
0000
0000
0000
1000
0000
0000
0000
0001
0000
0000
0000
,
1000
0000
0100
0000
0001
0000
0100
0000
1000
0000
0010
0000
0100
0010
0100
0000
,
0001
0010
0100
0000
0100
1000
2002
3003
,
2020
0000
0000
0030
3001
0000
1001
0000
0000
0000
0100
0000
2020
0000
3030
0000
,
2002
0000
3003
0000
0200
0300
0001
0000
,
0010
0000
0100
0000
0010
0000
0001
0100
,
0001
0100
0010
0100
0001
0000
1001
0101
,
0101
0000
1010
0000
0011
0011
0000
1100
,
1100
1001
1000
0001
,
1000
0000
0001
0010
0001
0000
0010
0000
0001
0000
0100
0000
0010
0000
0000
0000
,
0010
0000
1000
0010
1000
0000
0001
0000
0001
0000
0010
0000
0001
0000
0100
0000
,
0100
0001
0100
0010
0010
0000
1000
0000
,
1000
0010
1000
0001
0100
0010
1000
0100
1000
0100
0010
0001
0010
0000
0100
0000
,
1000
0000
0010
0100
0010
0000
0100
0000
0001
0000
1000
0100
1000
0000
0100
0000
,
0010
0001
0100
0100
0001
0100
0010
0000
,
0010
0000
1000
0000
0001
0000
0000
0000
0010
0000
0000
0000
0001
0010
0100
1000
,
0001
0010
0100
1000
0001
0010
0100
1000
0001
0000
0000
0000
0010
0000
0001
0000
,
0100
0010
0100
0000
0001
0100
0010
0100
,
0001
0000
0100
0010
1000
0000
0000
0000
0010
0000
1000
0000
0100
0000
1000
0000
,
1000
0001
1000
0100
0100
0000
1000
0000
,
0010
0100
0001
0100
0001
1000
0010
0100
0010
0100
0001
1000
0001
0000
0100
0000
,
0010
1000
0001
0000
1000
0001
0010
0000
,
0001
0000
1000
0001
0100
0010
0100
0010
,
0000
0000
0010
0000
1000
0000
0000
0000
0100
0000
0010
0000
0001
0100
0001
0100
,
0001
0000
0100
0000
0010
1000
0000
0010
1000
0000
0000
0000
1010
0000
0000
0000
,
0001
0000
1000
0000
0010
0000
0100
0010
,
1000
0100
0010
0001
0101
0001
1010
1000
,
1001
0000
0011
0000
0000
0110
0000
0101
,
0101
0000
1100
0000
1110
0000
0000
1000
,
0101
0000
1010
0000
0000
0110
0000
0101
,
0101
0000
0110
1001
0000
0000
0101
1000
,
0110
0000
1010
0000
0000
0011
0000
1100
,
1100
1001
1001
0220
,
0000
0000
0330
0001
,
1000
0100
0000
0000
0000
0000
1000
0000
0000
0000
0010
0000
0000
0000
0000
0100
0010
0000
0000
0000
1000
0000
0000
0001
0010
0000
0000
0000
0000
0001
0000
0000
0000
0000
0000
0000
0000
0000
0000
0000
0100
0000
0000
0000
0010
0000
0000
1000
,
0100
0000
0000
0010
0000
0001
0000
0000
0000
0000
0000
0100
0001
0000
0000
0100
0001
0000
0100
0000
0010
0000
0000
1000
0000
0010
0000
0000
0200
0000
0000
0000
0000
0000
0000
0000
0000
0000
0000
0000
0000
0000
0000
0000
0000
0000
0000
0000
,
0000
0000
0000
0000
0300
0000
0000
0000
0000
0000
0000
0000
0000
0001
1000
0001
2000
0000
0000
0000
0000
0000
0000
0000
0000
0000
0000
0000
0000
0000
0000
0000
0000
0000
3001
0000
0000
0000
0000
0000
0000
0000
0000
0000
0100
0000
0000
0000
;

//---------------dance-single - ----------------
#NOTES:
     dance-single:
     :
     Hard:
     7:
     0.456,0.484,0.252,0.321,0.000,302.000,29.000,37.000,3.000,2.000:
0000
0000
0000
0000
,
0000
0000
1000
0002
,
0000
0000
0000
0000
1003
0100
0000
0000
,
0000
0010
0100
0000
1000
0001
1000
0000
,
0001
0110
1000
1100
,
0000
0001
1000
0020
,
0000
0130
0002
1003
,
0100
0000
0010
0000
0000
0100
0020
0000
,
0000
0000
0032
0000
0000
0000
0103
0010
,
0200
0320
0000
0000
,
0000
0000
0000
0030
1000
0001
0100
0100
,
0100
0000
1001
0000
0000
0010
0000
1000
,
0010
0000
0201
0000
0310
0000
0000
1000
,
0001
0000
0110
0000
0000
0001
0000
1000
,
0010
0000
0200
0301
0000
0000
0010
0010
,
0010
0000
1001
0000
0000
0100
0000
0010
,
1000
0000
0102
0000
0100
0000
0103
0010
,
1000
0010
1000
0100
1000
0010
0100
0000
,
0000
0000
0101
0000
0100
0010
1000
0001
,
0000
0100
0020
0000
1030
0002
0000
0103
,
0020
0000
1030
0000
0001
0000
0100
0010
,
1000
0001
0000
0000
1000
0000
0001
0100
,
0010
0100
0000
0010
0000
1000
0001
0000
,
0000
0100
0010
1000
0000
0001
0000
0100
,
0000
0001
0000
0100
0000
0010
2000
0000
,
3001
0200
0000
0320
0000
2030
0000
3001
,
0000
0001
0000
1000
0000
0000
0010
0100
,
0010
0100
0000
0001
1000
0010
0100
0001
,
1000
0010
0100
0010
1000
0000
0000
0001
,
0000
1000
0010
1000
0001
0100
0010
0000
,
1100
0000
0100
0010
0001
0010
0100
0000
,
0000
2000
3120
0230
,
0321
0000
0032
0000
0003
1000
0001
1000
,
0010
1000
0100
1000
0010
0100
0000
0000
,
0001
1000
0001
1000
0001
0000
1001
0000
,
1001
0000
0100
0101
,
0101
0000
0000
0000
0001
0000
1000
0010
,
0100
0010
0000
1000
0000
0001
0000
0100
,
0010
1000
0010
0000
0100
0010
0110
0000
,
0110
0000
1000
1010
,
1010
0000
0001
0010
,
0100
0000
0010
0000
0001
0000
1000
0100
,
0010
0001
0010
0100
1000
0000
0001
0001
,
0001
0000
0110
0000
1000
1000
0000
0010
,
0010
0011
0100
0002
,
0000
0000
0000
0000
1003
0020
0000
0030
,
0000
0100
1000
0000
0001
0010
0100
0000
,
1000
0101
0100
0110
,
0000
1000
0001
0200
,
0000
0000
0301
0100
,
0010
0100
0010
0000
0000
1000
0002
0000
,
0000
0103
0010
0000
1010
0000
2000
0000
,
0000
3001
0100
0000
0001
0000
0020
0000
,
0000
0031
0100
0000
0010
1000
0100
0010
,
0001
0100
0001
0000
1000
0010
0100
0000
,
0001
0100
0010
11M0
,
0000
0001
0100
0020
,
0000
1030
0001
0000
1000
0100
0010
0000
,
0100
0000
1000
0000
0000
0001
0100
0020
,
0000
1030
0020
0000
1030
0001
0200
0000
,
0000
0310
0200
0000
0000
0300
1MM1
0000
,
1000
0000
0010
0000
0100
0000
0001
0010
,
0100
0010
0001
1000
0100
0010
0100
0100
,
0100
0000
1010
0000
0000
1000
0000
0001
,
0100
0000
0120
0000
1030
0000
0000
0001
,
0100
0000
0001
0000
0000
1000
0000
0010
,
0100
0000
0020
1030
0000
0000
0100
0100
,
0100
0000
1010
0000
0000
0001
0000
0010
,
0001
2000
0002
0000
,
0000
0000
3000
1003
;

//---------------dance-single - ----------------
#NOTES:
     dance-single:
     :
     Medium:
     5:
     0.380,0.393,0.130,0.156,0.000,274.000,15.000,18.000,0.000,0.000:
0000
0000
0000
0000
,
0000
0000
1000
0020
,
0000
0000
0000
0130
,
0100
0000
0000
0010
,
0010
1000
0001
0100
,
0000
0010
1000
0002
,
0000
1003
0010
0100
,
0010
1000
0000
0002
,
0000
2003
0000
3002
,
0000
0003
2002
0000
0000
0000
0000
0000
,
0000
0000
0000
3003
0000
0000
0100
0001
,
0100
0000
0110
0000
0000
0001
0000
0000
,
0010
0000
0011
0000
1000
0000
0010
0100
,
0010
0000
1001
0000
0000
0100
0000
0000
,
0001
0000
0101
0000
0000
0000
1000
0100
,
1000
0000
1010
0000
0000
0100
0000
0000
,
0001
0000
0110
0000
1000
0000
0001
1000
,
0010
0100
0010
0000
1000
0000
0001
0100
,
0001
0100
0001
0000
1000
0000
0010
0000
,
0000
0000
1000
0000
0001
0100
0000
0001
,
0100
0001
1000
0010
,
0100
0010
0000
0000
0100
0000
0001
0000
,
1000
0010
0000
0100
0000
0000
0001
0000
,
1000
0001
1000
0010
,
0100
0010
0100
0001
,
0010
0001
0010
0100
,
0100
0000
0000
1000
,
0001
0100
0000
0000
0010
0000
1000
0000
,
0001
0000
1000
0010
1000
0000
0001
0000
,
0100
0000
0001
0010
0001
0000
0100
0000
,
0010
0000
1000
0001
1000
0000
0101
0000
,
0000
0001
1000
0010
,
0100
0000
0010
0000
0000
0000
1000
0100
,
1000
0000
0001
0010
0001
0000
0000
0000
,
1000
0000
0010
0000
0100
0000
0002
0003
,
0002
0000
0003
0000
1000
0000
0020
0030
,
0020
0000
0030
0000
1000
0000
0001
0010
,
0100
0000
1000
0100
0010
0000
0001
1000
,
0001
1000
0001
0000
1000
0010
2000
0000
,
3002
0003
0100
0002
,
0203
0300
0001
0100
,
0010
0000
1000
0000
0010
0000
1000
0010
,
1000
0000
0010
0100
0010
0000
1000
0001
,
1000
0000
0010
0000
1000
0010
0000
1000
,
0010
0000
0100
0000
0001
0000
0100
0010
,
0100
0010
0100
0000
0001
0000
0010
0001
,
0010
0000
0001
1000
0001
0000
0100
0001
,
0100
0000
0010
1000
0010
0000
0100
0000
,
0000
0000
0001
0100
0001
0100
0001
0000
,
1000
0100
1000
0000
0001
0010
0001
0000
,
0100
0001
0100
0000
0010
0000
1000
0000
,
0010
0100
0001
2000
,
0000
0000
3001
0000
0100
0000
0001
1000
,
0001
1000
0001
0000
0100
0000
0010
0100
,
0010
0100
0010
0000
1000
0010
1000
0000
,
0001
1000
0010
0100
,
0000
0000
0001
0000
1000
0000
0001
0100
,
0001
0100
0001
0000
1000
0010
1000
0000
,
0001
0100
0001
0000
1000
0000
0010
0000
,
0100
0000
0001
0000
1000
0000
0010
0100
,
0010
1000
0000
0010
,
0000
0000
0000
1000
,
0001
0000
0100
0000
0010
0100
0010
1000
,
0010
0000
0110
0000
0000
0100
0000
0000
,
0010
0000
1010
0000
0200
0300
0000
0000
,
0001
0000
0101
0000
0000
1000
0000
0000
,
0010
0000
1100
0000
0000
0000
1000
0100
,
1000
0000
0110
0000
0000
0100
0000
0000
,
0001
1001
0020
0000
,
0000
0000
0030
1010
;

//---------------dance-single - ----------------
#NOTES:
     dance-single:
     :
     Easy:
     3:
     0.191,0.238,0.113,0.052,0.000,135.000,13.000,6.000,0.000,0.000:

0000
0000
0000
0000
,
0000
0000
0000
1000
,
0000
0000
0000
0000
,
0000
0010
0000
0100
,
0000
0010
0000
0110
,
0000
1000
0000
0001
,
0000
0000
0000
0100
,
0000
0001
0000
0100
,
0000
0010
0000
0100
,
0000
0020
0000
0000
,
0000
0000
0000
0030
0000
0000
1000
0000
,
0001
1000
0000
0000
,
0000
0001
0100
0000
,
0000
0010
0000
0000
,
0000
1010
0000
1000
,
0001
0100
0000
0000
,
0000
0010
1000
0001
,
0000
1000
0000
0020
,
0000
0100
0000
1030
,
0000
0001
0000
0100
,
0000
0010
0000
1000
,
1000
0000
0001
0100
,
0100
0000
0000
1010
,
0000
1000
0000
0001
,
0000
0100
0000
0001
,
0000
1000
0000
0010
,
0000
1000
0000
0001
,
0001
0000
0000
1000
,
0000
0001
0000
0100
,
0000
0001
0000
0100
,
0000
0010
0010
1000
,
0000
0001
0000
0100
,
0000
0001
0000
2000
,
3001
2000
3001
0000
,
1000
0010
0000
1001
,
0000
0000
0000
1001
,
0000
0000
0100
0001
,
0000
1000
0000
0010
,
0100
0010
0000
1100
,
0000
0000
0000
0011
,
0000
0000
1000
0001
,
1000
0001
1000
0010
,
1000
0010
1000
0010
,
0000
0000
0100
0000
,
0010
0010
0000
1000
,
0000
0000
0000
0000
,
0000
0001
0000
1000
,
0000
0010
0000
0100
,
0000
0001
0010
0001
,
0000
0000
0000
1000
,
0000
0001
0000
0100
,
0000
0000
0000
0110
,
0000
1001
0000
1000
,
0000
0000
0000
0010
,
0000
0100
0000
0001
,
0000
1000
0000
0001
,
0000
1000
0010
0100
,
0000
0001
0000
1000
,
0000
0010
0000
0100
,
0000
0001
0000
2000
,
0000
0002
0000
3003
,
1000
0001
1000
0010
,
0100
0010
0000
1000
,
0000
1001
0000
0000
,
0000
0010
1000
0000
,
0001
0101
0000
0000
,
1000
0001
0000
0100
,
0000
0110
0000
0000
,
0000
0001
0011
0000
;

//---------------dance-single - ----------------
#NOTES:
     dance-single:
     :
     Beginner:
     1:
     0.086,0.089,0.009,0.043,0.000,63.000,1.000,5.000,0.000,0.000:
0000
0000
0000
0000
,
0000
0000
0000
0000
,
0000
0000
0000
0000
,
0000
0000
0000
0000
,
0000
0000
0000
0000
,
0000
0000
0000
0000
,
0000
0000
0000
0000
,
0000
0000
0000
0000
,
0000
0000
0000
0000
,
0000
0001
0000
0000
,
0000
0000
0000
0000
,
0000
1000
0000
0000
,
0000
0002
0003
0000
,
0000
0100
0000
0000
,
0000
0000
0020
0030
0000
0000
0000
0000
,
0000
1000
0000
0000
,
0000
0001
0000
0000
,
0000
0000
0000
0000
,
0000
0000
0000
1000
,
0000
0000
0000
0010
,
0000
0000
0000
0100
,
0000
0000
0000
0001
,
0000
1000
0000
0001
,
0000
0000
0000
0100
,
0000
0000
0000
0010
,
0000
0000
0000
1000
,
0000
0000
0000
0001
,
0000
0000
0000
0100
,
0000
0000
0000
0010
,
0000
0000
0000
1000
,
0000
0001
0000
1000
,
0000
0000
0000
0010
,
0000
0000
0000
0100
,
0000
0000
0000
0001
,
0000
1000
0000
0001
,
0000
0000
0000
1000
,
0000
0000
0000
0010
,
0000
0000
0000
0100
,
0000
0001
0000
0100
,
0000
0000
0000
0010
,
0000
0000
0000
1000
,
0000
0000
0000
0010
,
0000
0000
0000
0100
,
0000
0001
0000
0100
,
0000
0001
0000
0100
,
0000
0000
0001
0000
,
0000
0000
0000
1000
,
0000
0000
0000
0010
,
0000
0000
0000
0100
,
0000
0000
0000
0001
,
0000
0000
0000
1000
,
0000
0000
0000
0001
,
0000
0000
0000
1000
,
0000
0001
0000
1000
,
0000
0000
0000
0010
,
0000
0000
0000
1001
,
0000
0000
0000
1000
,
0000
0000
0000
0001
,
0000
0000
0000
0100
,
0000
0000
0000
0001
,
0000
1000
0000
0000
,
0000
0000
0000
0000
,
0000
0000
0000
0000
,
0000
0001
0000
0000
,
0000
2000
3000
0000
,
0000
0010
0000
0000
,
0000
0000
2000
3000
0000
0000
0000
0000
,
0000
0001
0000
0000
,
0000
2000
3000
0000
;
